dolby vision בסוני xh9096

טלוויזיות ומסכים LED, QD, UHD, 4K
ELD
סמל אישי של משתמש
חבר שרק התחיל
חבר שרק התחיל
הודעות: 30
הצטרף: נובמבר 2018
נתן תודות: 12 פעמים
קיבל תודות: 2 פעמים

dolby vision בסוני xh9096

הודעה שלא נקראה #1 

שלום לכולם,

כשאני מנגן את הגרסא החדשה של שר הטבעות באיכות 4k dv על הסוני 96 שלי דרך כונן חיצוני (חיבור ישיר לטלוויזיה), אני לא רואה חיווי שמעיד על כך שהתוכן המשודר הוא דולבי ויז'ן.
כנ"ל גם בסרטוני יוטיוב שמוגדרים באיכות של דולבי ויז'ן. לעומת זאת בנטפליקס אני כן מקבל רואה חיווי. השאלה שלי היא האם ישנה דרך לקבל איכות dv ללא סטרימר חיצוני, או שעליי להסתפק בגרסאות remux אחרות של סרטים וסדרות שאינן דולבי ויז'ן.

*(גרסת הסרט שאני מנסה לנגן היא the Lord of the Rings Extended UHD BluRay 2160p TrueHD Atmos 7 1 DV HEVC REMUX-FraMeSToR)

TheCoolest
סמל אישי של משתמש
אחראי תחום מסכים
אחראי תחום מסכים
הודעות: 15236
הצטרף: מאי 2007
מיקום: רמת גן
נתן תודות: 158 פעמים
קיבל תודות: 1831 פעמים
יצירת קשר:

Re: dolby vision בסוני xh9096

הודעה שלא נקראה #2 

אתה לא תקבל DV מקובץ MKV. הדרך היחידה כרגע שאנשים מצליחים לעשות את זה היא בשילוב של NVIDIA SHIELD עם גרסה חדשה של PLEX.

ELD
סמל אישי של משתמש
חבר שרק התחיל
חבר שרק התחיל
הודעות: 30
הצטרף: נובמבר 2018
נתן תודות: 12 פעמים
קיבל תודות: 2 פעמים

Re: dolby vision בסוני xh9096

הודעה שלא נקראה #3 

28/12/2020 2:02  
TheCoolest כתב:
אתה לא תקבל DV מקובץ MKV. הדרך היחידה כרגע שאנשים מצליחים לעשות את זה היא בשילוב של NVIDIA SHIELD עם גרסה חדשה של PLEX.
...
וסטרימר זול יותר מהשילד לא יתמוך בDV?

GalZohar
סמל אישי של משתמש
חבר פעיל מאוד
חבר פעיל מאוד
הודעות: 219
הצטרף: אוקטובר 2020
נתן תודות: 46 פעמים
קיבל תודות: 17 פעמים

Re: dolby vision בסוני xh9096

הודעה שלא נקראה #4 

אבל בלי קשר ל-DV הסרטון מצליח להתנגן חלק? מחיפוש ברשת נראה שטלויזיות (גם החדשות) מתקשות לנגן קבצי remux.

ELD
סמל אישי של משתמש
חבר שרק התחיל
חבר שרק התחיל
הודעות: 30
הצטרף: נובמבר 2018
נתן תודות: 12 פעמים
קיבל תודות: 2 פעמים

Re: dolby vision בסוני xh9096

הודעה שלא נקראה #5 

28/12/2020 15:50  
GalZohar כתב:
אבל בלי קשר ל-DV הסרטון מצליח להתנגן חלק? מחיפוש ברשת נראה שטלויזיות (גם החדשות) מתקשות לנגן קבצי remux.
...
כן, חלק לגמרי

GalZohar
סמל אישי של משתמש
חבר פעיל מאוד
חבר פעיל מאוד
הודעות: 219
הצטרף: אוקטובר 2020
נתן תודות: 46 פעמים
קיבל תודות: 17 פעמים

Re: dolby vision בסוני xh9096

הודעה שלא נקראה #6 

ודרך הרשת גם או רק ישירות מהכונן?

TheCoolest
סמל אישי של משתמש
אחראי תחום מסכים
אחראי תחום מסכים
הודעות: 15236
הצטרף: מאי 2007
מיקום: רמת גן
נתן תודות: 158 פעמים
קיבל תודות: 1831 פעמים
יצירת קשר:

Re: dolby vision בסוני xh9096

הודעה שלא נקראה #7 

28/12/2020 12:54  
ELD כתב:
28/12/2020 2:02  
TheCoolest כתב:
אתה לא תקבל DV מקובץ MKV. הדרך היחידה כרגע שאנשים מצליחים לעשות את זה היא בשילוב של NVIDIA SHIELD עם גרסה חדשה של PLEX.
...
וסטרימר זול יותר מהשילד לא יתמוך בDV?
...
אנחנו בודקים את העניין עבור תמיכה ב-CoreELEC, אבל כרגע לא.

ChinggisKhan
סמל אישי של משתמש
חבר פעיל במיוחד
חבר פעיל במיוחד
הודעות: 714
הצטרף: יוני 2011
נתן תודות: 25 פעמים
קיבל תודות: 105 פעמים

Re: dolby vision בסוני xh9096

הודעה שלא נקראה #8 

28/12/2020 2:02  
TheCoolest כתב:
אתה לא תקבל DV מקובץ MKV. הדרך היחידה כרגע שאנשים מצליחים לעשות את זה היא בשילוב של NVIDIA SHIELD עם גרסה חדשה של PLEX.
...
אכן נתקלתי לראשונה ב-mp4 שה-e9 נתקעת איתו. יכול להיות שה-dv הוא העניין ?

ELD
סמל אישי של משתמש
חבר שרק התחיל
חבר שרק התחיל
הודעות: 30
הצטרף: נובמבר 2018
נתן תודות: 12 פעמים
קיבל תודות: 2 פעמים

Re: dolby vision בסוני xh9096

הודעה שלא נקראה #9 

28/12/2020 16:06  
GalZohar כתב:
ודרך הרשת גם או רק ישירות מהכונן?
...
בדקתי רק ישירות מהכונן

TheCoolest
סמל אישי של משתמש
אחראי תחום מסכים
אחראי תחום מסכים
הודעות: 15236
הצטרף: מאי 2007
מיקום: רמת גן
נתן תודות: 158 פעמים
קיבל תודות: 1831 פעמים
יצירת קשר:

Re: dolby vision בסוני xh9096

הודעה שלא נקראה #10 

@ChinggisKhan
אמור לעבוד כל עוד הוא ארוז כמו שצריך, אני חושב שזה אמור להיות single layer. אפשר לבדוק עם mediainfo.
אצלי זה עובד על ה-B7.

ChinggisKhan
סמל אישי של משתמש
חבר פעיל במיוחד
חבר פעיל במיוחד
הודעות: 714
הצטרף: יוני 2011
נתן תודות: 25 פעמים
קיבל תודות: 105 פעמים

Re: dolby vision בסוני xh9096

הודעה שלא נקראה #11 

עובדים אצלי MP4 HDR אבל זה הראשון שניסתי DV. לא היה נראה לי שאמור להיות הבדל, אבל כנראה שיש. אני


Complete name : H:\Lord of the Rings Extended Trilogy DoViMP4-HDR10 UHD hevc-d3g\LOTR - Fellowship of the Ring ext uhd doviMP4-hdr hevc-d3g\The Lord of The Rings-The Fellowship of the Ring 2001 Extended UHD BluRay Pt1 DoViMP4-HDR-10 hevc-d3g.mp4
Format : MPEG-4
Format profile : Base Media / Version 2
Codec ID : mp42 (mp42/isom/hev1/dby1)
File size : 51.9 GiB
Duration : 1 h 45 min
Overall bit rate mode : Variable
Overall bit rate : 70.2 Mb/s
Encoded date : UTC 2020-12-09 21:10:08
Tagged date : UTC 2020-12-09 21:17:09
Writing application : DVDFab 12.0.1.1
Cover : Yes
Video #1
ID : 1
Format : HEVC
Format/Info : High Efficiency Video Coding
Format profile : Main 10@[email protected]HDR format : SMPTE ST 2086, HDR10 compatible
Codec ID : hev1
Codec ID/Info : High Efficiency Video Coding
Duration : 1 h 45 min
Source duration : 1 h 45 min
Bit rate : 67.7 Mb/s
Width : 3 840 pixels
Height : 2 160 pixels
Display aspect ratio : 16:9
Frame rate mode : Constant
Frame rate : 23.976 (24000/1001) FPS
Color space : YUV
Chroma subsampling : 4:2:0 (Type 2)
Bit depth : 10 bits
Bits/(Pixel*Frame) : 0.340
Stream size : 50.0 GiB (96%)
Source stream size : 50.0 GiB (96%)
Encoded date : UTC 2020-12-09 21:10:08
Tagged date : UTC 2020-12-09 21:17:02
Color range : Limited
Color primaries : BT.2020
Transfer characteristics : PQ
Matrix coefficients : BT.2020 non-constant
Mastering display color primaries : Display P3
Mastering display luminance : min: 0.0050 cd/m2, max: 4000 cd/m2
Maximum Content Light Level : 602 cd/m2
Maximum Frame-Average Light Level : 184 cd/m2
Codec configuration box : hvcC
Video #2
ID : 2
Format : HEVC
Format/Info : High Efficiency Video Coding
Format profile : Main 10@[email protected]HDR format : Dolby Vision, Version 1.0, dvhe.07.06, EL+RPU, Blu-ray compatible / SMPTE ST 2086, HDR10 compatible
Codec ID : dvhe
Codec ID/Info : High Efficiency Video Coding with Dolby Vision
Duration : 1 h 45 min
Source duration : 1 h 45 min
Bit rate : 2 101 kb/s
Width : 1 920 pixels
Height : 1 080 pixels
Display aspect ratio : 16:9
Frame rate mode : Constant
Frame rate : 23.976 (24000/1001) FPS
Color space : YUV
Chroma subsampling : 4:2:0 (Type 2)
Bit depth : 10 bits
Bits/(Pixel*Frame) : 0.042
Stream size : 1.55 GiB (3%)
Source stream size : 1.55 GiB (3%)
Encoded date : UTC 2020-12-09 21:10:08
Tagged date : UTC 2020-12-09 21:17:02
Color range : Limited
Color primaries : BT.2020
Transfer characteristics : PQ
Matrix coefficients : BT.2020 non-constant
Mastering display color primaries : Display P3
Mastering display luminance : min: 0.0050 cd/m2, max: 4000 cd/m2
Codec configuration box : hvcC+dvcC
Audio
ID : 3
Format : E-AC-3
Format/Info : Enhanced AC-3
Commercial name : Dolby Digital Plus
Codec ID : ac-3
Duration : 1 h 45 min
Bit rate mode : Constant
Bit rate : 448 kb/s
Channel(s) : 6 channels
Channel layout : L R C LFE Ls Rs
Sampling rate : 48.0 kHz
Frame rate : 31.250 FPS (1536 SPF)
Compression mode : Lossy
Stream size : 339 MiB (1%)
Title : English (eac3 5.1)
Language : English
Service kind : Complete Main
Default : Yes
Alternate group : 1
Encoded date : UTC 2020-12-09 21:10:08
Tagged date : UTC 2020-12-09 21:17:03
Text
ID : 4
Format : VobSub
Codec ID : mp4s-E0
Codec ID/Info : The same subtitle format used on DVDs
Duration : 1 h 45 min
Bit rate mode : Variable
Bit rate : 7 073 b/s
Maximum bit rate : 4 249 Mb/s
Stream size : 5.34 MiB (0%)
Language : English
Default : Yes
Forced : No
Alternate group : 2
Encoded date : UTC 2020-12-09 21:10:08
Tagged date : UTC 2020-12-09 21:17:02

Alon_Solo
סמל אישי של משתמש
חבר מביא חבר
חבר מביא חבר
הודעות: 3425
הצטרף: ספטמבר 2008
מיקום: קרית אונו
נתן תודות: 59 פעמים
קיבל תודות: 350 פעמים

Re: dolby vision בסוני xh9096

הודעה שלא נקראה #12 

@ELD
תן לי רגע להחזיר אותך אחורה. כשאתה כותב שאתה כן רואה או לא רואה חיווי לDV, לאיזה חיווי אתה בדיוק מתכוון?
מה החיווי שאתה רואה בנטפליקס ולא רואה בתכנים אחרים?

ELD
סמל אישי של משתמש
חבר שרק התחיל
חבר שרק התחיל
הודעות: 30
הצטרף: נובמבר 2018
נתן תודות: 12 פעמים
קיבל תודות: 2 פעמים

Re: dolby vision בסוני xh9096

הודעה שלא נקראה #13 

29/12/2020 23:10  
Alon_Solo כתב:
@ELD
תן לי רגע להחזיר אותך אחורה. כשאתה כותב שאתה כן רואה או לא רואה חיווי לDV, לאיזה חיווי אתה בדיוק מתכוון?
מה החיווי שאתה רואה בנטפליקס ולא רואה בתכנים אחרים?
...
אני נכנס לפירוט של פרטי הוידאו המתנגן בנגן (ניסיתי גם בנגן המובנה וגם vlc).
בנוסף בנטפליקס בתוכן של dv כשאתה לוחץ על ההגדרות מופיע לך בהגדרה 'איכות תמונה' שהאיכות היא דולבי ואתה יכול לבחור בין בהיר וכהה

codudi99
סמל אישי של משתמש
חבר פעיל
חבר פעיל
הודעות: 74
הצטרף: ספטמבר 2014
נתן תודות: 0
קיבל תודות: 1 פעם

Re: dolby vision בסוני xh9096

הודעה שלא נקראה #14 

כמו שכתבי בעבר, סרטי DV בפורמט mp4 או mkv מתנגנים ללא בעיה אצלי בטלויזיה XH9096 על ידי שרת NAS ואפליקציה MrMC. אני מקבל את אותו החווי של dv שמופיע אצלי בסרטי Netflix או AppleTV. כמו כן, כמו שנאמר, ניתן לבדוק בקלות האם הקובץ תומך בפורמט dv עלידי mediainfo

שלח תגובה

חזור אל “טלוויזיות LCD,LED”